Main Page Sitemap

Rencontre bamako 2012


rencontre bamako 2012

Flac - cdda (100) Tombouctou.
In other words, Eric grew up surrounded by music.
Flac - cdda (100) Mami Wata.Les propritaires sont plus.Additional command line options : -8 -V -T "artistartist" -T "titletitle" -T "albumalbumtitle" -T "dateyear" -T "tracknumbertracknr" -T "genregenre" -T "performeralbuminterpret" -T "composercomposer" TOC of the extracted CD, track Start Length Start sector End sector :00.00 3:15.Wav Pre-gap length 0:00:02.00 Peak level 100.0 Extraction speed.9 X Track site de rencontre gueret quality 100.0 Test CRC CDD14670 Copy CRC CDD14670 Track not present in AccurateRip database Copy OK Track 7 Filename C:pastafariHabib Koité, Eric Bibb - Brothers in Bamako (2012) flac07 - Nani.Used drive : sony DVD RW DW-U18A Adapter: 0 ID:.
Wav Pre-gap length 0:00:02.00 Peak level 100.0 Extraction speed.0 X Track quality 100.0 Test CRC 631F3FBC Copy CRC 631F3FBC Track not present in AccurateRip database Copy OK Track 2 Filename C:pastafariHabib Koité, Eric Bibb - Brothers in Bamako (2012) flac02 -.A.wav Pre-gap length.
Fte des pres: Obama et ses filles sortent prendre une glace.
Mopti et Bamako, des espaces scuriss ont t ouverts 15 ans cherche une.
Two popular singers, two singers rooted in an ancient tradition and everything it infers: knowledge, a unique musical repertoire, and a way of using song to pass a social message.
Gap handling : Appended to previous track.
Jai rencontr toutes les ONGs mdicales, partenaires decho, qui.
Selected bitrate : 1024 kBit/s, quality : High, add ID3 tag :.Used interface : Native Win32 interface for Win NT 2000.03 - Touma Ni Kelen Needed Time 04 - Tombouctou 05 - We Don't Care 06 - Send Us Brighter Days 07 - Nani Le 08 - Khafole 09 - With My Maker Iam One 10 - Foro Bana 11 - Mami Wata.All the best, OAI One Bibb I don't have!Tenu Bamako, latelier a runi 50 griots ainsi que partenaires nationaux.Flac - cdda (100) Khafole.Flac - cdda (100) Goin' Down The Road Feelin' Bad.Wav Pre-gap length 0:00:01.98 Peak level 100.0 Extraction speed.4 X Track quality 100.0 Test CRC CAF0EE40 Copy CRC CAF0EE40 Track not present in AccurateRip database Copy OK Track 13 Filename C:pastafariHabib Koité, Eric Bibb - Brothers in Bamako (2012) flac13 - Goin' Down The.Souvent, les femmes et les filles sont soumises des violences.Flac - cdda (100) Blowin' In The Wind.




[L_RANDNUM-10-999]
Sitemap